<?xml version="1.0" encoding="UTF-8" standalone="no"?>
<!DOCTYPE svg PUBLIC "-//W3C//DTD SVG 1.0//EN" "http://www.w3.org/TR/2001/REC-SVG-20010904/DTD/svg10.dtd">
<svg xmlns="http://www.w3.org/2000/svg" width="100%" height="100%">
<defs>
<font id="futuraltmedium" horiz-adv-x="420"><font-face font-family="Futura LT Medium" units-per-em="1000" panose-1="2 0 5 4 2 0 0 2 0 3" ascent="1020" descent="-268" alphabetic="0"/>
<missing-glyph horiz-adv-x="500" d="M442 8V504H58V8H442ZM50 512H450V0H50V512Z"/>
<glyph unicode=" " glyph-name="space" horiz-adv-x="289"/>
<glyph unicode="!" glyph-name="exclam" horiz-adv-x="321" d="M116 754H206V174H116V754ZM161 100Q185 100 202 83T219 42Q219 18 202 1T161 -16Q137 -16 120 1T103 42Q103 65 120 82T161 100Z"/>
<glyph unicode="&quot;" glyph-name="quotedbl" horiz-adv-x="439" d="M349 754L331 426H269L251 754H349ZM188 754L170 426H108L90 754H188Z"/>
<glyph unicode="#" glyph-name="numbersign" horiz-adv-x="578" d="M218 290H341L368 444H245L218 290ZM294 718L258 524H382L417 718H496L461 524H553V444H446L419 290H520V210H403L365 0H289L326 210H203L163 0H88L125 210H25V290H140L167 444H62V524H181L217 718H294Z"/>
<glyph unicode="$" glyph-name="dollar" horiz-adv-x="578" d="M283 683Q244 677 217 649T190 580Q190 536 217 512T283 472V683ZM283 860H333V770Q390 765 433 735T504 654L425 609Q409 639 387 656T333 683V448Q371 431 406 411T468 363T511 300T528 218Q528 177 513 138T471 66T409 12T333 -16V-111H283V-16Q239 -15 200 1T129 46T78 113T50 194L140 213Q153 149 185 115T283 72V372L247 390Q217 405 191 421T146 459T115 508T103 573Q103 610 117 644T155 706T212 750T283 770V860ZM333 78Q356 83 375 96T408 127T430 167T438 214Q438 239 430 259T407 296T373 325T333 349V78Z"/>
<glyph unicode="%" glyph-name="percent" horiz-adv-x="708" d="M516 267Q493 267 472 258T435 234T410 199T400 155Q400 132 409 112T435 77T472 53T516 44Q539 44 560 53T597 77T622 112T632 155Q632 178 623 198T597 234T560 258T516 267ZM516 327Q552 327 584 314T640 277T678 223T692 155Q692 119 678 88T639 34T583 -2T516 -16Q481 -16 449 -3T393 34T355 88T340 155Q340 191 354 222T392 277T448 313T516 327ZM597 744L157 -16L111 9L552 770L597 744ZM193 710Q170 710 149 701T112 677T87 642T77 598Q77 575 86 555T112 520T149 496T193 487Q216 487 237 496T274 520T299 555T309 598Q309 621 300 641T274 677T237 701T193 710ZM193 770Q229 770 261 757T317 720T355 666T369 598Q369 562 355 531T316 477T260 441T193 427Q158 427 126 440T70 477T32 531T17 598Q17 634 31 665T69 720T125 756T193 770Z"/>
<glyph unicode="&amp;" glyph-name="ampersand" horiz-adv-x="692" d="M510 102Q467 51 409 18T284 -16Q237 -16 195 0T122 46T72 116T53 206Q53 242 63 270T92 322T134 366T185 406L232 440Q200 474 175 515T149 605Q149 644 162 674T199 726T254 759T323 770Q357 770 388 760T444 729T482 679T497 613Q497 581 485 554T452 504T408 462T360 425L517 235L605 337L665 275L573 167L708 0H592L510 102ZM319 498Q333 509 349 521T378 546T400 576T409 614Q409 654 384 675T321 696Q287 696 262 674T237 616Q237 587 251 565T282 522L307 490L319 498ZM278 366Q258 352 235 336T190 300T155 257T141 207Q141 180 152 155T183 111T228 80T281 68Q307 68 331 77T376 100T417 132T454 168L287 372L278 366Z"/>
<glyph unicode="'" glyph-name="quotesingle" horiz-adv-x="277" d="M188 754L170 426H108L90 754H188Z"/>
<glyph unicode="(" glyph-name="parenleft" horiz-adv-x="292" d="M235 754Q211 704 195 649T169 537T154 421T149 308Q149 253 153 195T168 80T195 -33T235 -138L161 -193Q133 -139 114 -77T82 51T63 182T57 308Q57 369 63 434T81 565T113 692T161 809L235 754Z"/>
<glyph unicode=")" glyph-name="parenright" horiz-adv-x="292" d="M131 809Q159 755 178 693T210 565T229 435T235 308Q235 248 229 183T211 52T179 -76T131 -193L57 -138Q81 -89 97 -34T123 79T138 195T143 308Q143 363 139 421T124 536T97 649T57 754L131 809Z"/>
<glyph unicode="*" glyph-name="asterisk" horiz-adv-x="432" d="M253 754V659L334 707L369 648L284 598L369 548L334 490L253 540V444H184V541L97 492L63 549L148 598L64 648L95 705L184 656V754H253Z"/>
<glyph unicode="+" glyph-name="plus" horiz-adv-x="578" d="M332 512V299H545V213H332V0H246V213H33V299H246V512H332Z"/>
<glyph unicode="," glyph-name="comma" horiz-adv-x="289" d="M242 88L109 -179L54 -156L164 119L242 88Z"/>
<glyph unicode="-" glyph-name="hyphenminus" horiz-adv-x="332" d="M276 358V283H57V358H276Z"/>
<glyph unicode="." glyph-name="period" horiz-adv-x="289" d="M145 100Q169 100 186 83T203 42Q203 18 186 1T145 -16Q121 -16 104 1T87 42Q87 65 104 82T145 100Z"/>
<glyph unicode="/" glyph-name="slash" horiz-adv-x="551" d="M520 836L103 -126L32 -94L448 868L520 836Z"/>
<glyph unicode="0" glyph-name="zero" horiz-adv-x="578" d="M289 690Q238 690 205 656T152 573T124 471T116 378Q116 352 119 319T131 252T152 184T184 125T229 84T289 68Q323 68 349 83T394 125T426 184T447 251T458 319T462 378Q462 417 454 470T426 573T373 656T289 690ZM289 -16Q241 -16 203 2T135 51T85 122T51 206T32 294T26 377Q26 416 32 460T51 547T84 631T134 702T201 751T289 770Q338 770 376 752T444 703T493 632T527 548T546 460T552 377Q552 339 546 295T527 207T494 123T444 52T376 3T289 -16Z"/>
<glyph unicode="1" glyph-name="one" horiz-adv-x="578" d="M123 668L175 754H344V0H254V668H123Z"/>
<glyph unicode="2" glyph-name="two" horiz-adv-x="578" d="M532 86V0H45L375 405Q387 419 398 435T420 468T436 503T442 540Q442 570 430 596T398 641T350 672T294 684Q265 684 240 673T195 644T163 600T149 546H55Q61 596 79 637T128 708T201 754T294 770Q342 770 385 753T461 706T513 635T532 544Q532 502 517 462T476 389L228 86H532Z"/>
<glyph unicode="3" glyph-name="three" horiz-adv-x="578" d="M275 438Q305 438 332 444T379 464T411 502T423 559Q423 587 413 611T386 652T344 678T292 688Q241 688 208 659T167 580H74Q88 674 144 722T295 770Q340 770 379 756T449 716T496 652T513 567Q513 511 489 468T417 397Q473 371 498 321T524 210Q524 157 506 115T455 44T378 0T283 -16Q239 -16 198 -2T126 38T75 102T53 186H144Q147 158 160 136T193 99T238 75T290 66Q321 66 347 77T393 109T423 156T434 214Q434 250 422 278T389 326T339 354T275 360V438Z"/>
<glyph unicode="4" glyph-name="four" horiz-adv-x="578" d="M379 503H377L165 192H379V503ZM555 192V110H469V0H379V110H7L469 786V192H555Z"/>
<glyph unicode="5" glyph-name="five" horiz-adv-x="578" d="M291 668L244 513L297 516Q352 516 396 495T472 437T521 352T539 252Q539 192 517 143T458 59T369 4T260 -16Q225 -16 191 -7T127 19T71 60T30 116L100 182Q109 158 126 138T167 102T216 79T267 70Q305 70 338 84T396 124T435 183T449 255Q449 291 435 323T396 380T338 419T269 434Q229 434 191 417T128 367H110L226 754H528V668H291Z"/>
<glyph unicode="6" glyph-name="six" horiz-adv-x="578" d="M290 68Q321 68 350 80T401 113T437 162T450 222Q450 257 436 287T400 338T349 372T290 384Q259 384 231 371T180 336T144 286T130 227Q130 194 143 166T178 115T229 81T290 68ZM447 724L246 452L248 450Q265 458 283 463T322 468Q368 468 408 448T477 395T523 320T540 232Q540 180 521 135T467 57T388 4T291 -16Q242 -16 197 3T117 54T61 131T40 225Q40 282 64 330T122 424L379 770L447 724Z"/>
<glyph unicode="7" glyph-name="seven" horiz-adv-x="578" d="M47 668V754H590L120 -16L47 29L437 668H47Z"/>
<glyph unicode="8" glyph-name="eight" horiz-adv-x="578" d="M289 690Q263 690 240 680T200 652T172 611T161 560Q161 537 172 515T201 474T242 444T289 432Q313 432 336 443T377 473T406 514T417 560Q417 587 407 610T379 652T338 680T289 690ZM53 210Q53 240 60 268T83 321T120 363T172 391Q125 417 99 460T73 560Q73 606 90 644T136 711T204 754T289 770Q334 770 373 755T442 711T488 645T505 560Q505 504 479 461T406 391Q435 381 457 363T495 321T517 269T525 210Q525 157 506 116T455 45T380 0T289 -16Q241 -16 198 -1T123 44T72 115T53 210ZM289 352Q260 352 234 341T188 311T155 266T143 210Q143 181 155 156T188 111T235 80T289 68Q317 68 343 79T389 110T422 155T435 210Q435 240 423 266T391 311T344 341T289 352Z"/>
<glyph unicode="9" glyph-name="nine" horiz-adv-x="578" d="M302 370Q338 370 367 383T418 418T450 468T462 528Q462 558 450 586T416 637T367 672T308 686Q274 686 244 674T192 640T156 589T142 528Q142 494 156 465T192 415T244 382T302 370ZM145 31L346 302L344 304Q327 296 309 293T271 290Q224 290 184 309T115 361T69 435T52 522Q52 574 71 619T125 697T204 750T301 770Q350 770 395 751T475 700T531 623T552 529Q552 472 528 424T470 330L213 -16L145 31Z"/>
<glyph unicode=":" glyph-name="colon" horiz-adv-x="289" d="M145 482Q169 482 186 465T203 424Q203 400 186 383T145 366Q121 366 104 383T87 424Q87 447 104 464T145 482ZM145 100Q169 100 186 83T203 42Q203 18 186 1T145 -16Q121 -16 104 1T87 42Q87 65 104 82T145 100Z"/>
<glyph unicode=";" glyph-name="semicolon" horiz-adv-x="289" d="M192 482Q216 482 233 465T250 424Q250 400 233 383T192 366Q168 366 151 383T134 424Q134 447 151 464T192 482ZM234 88L101 -179L46 -156L156 119L234 88Z"/>
<glyph unicode="&lt;" glyph-name="less" horiz-adv-x="578" d="M545 404L161 256L545 108V14L33 221V291L545 498V404Z"/>
<glyph unicode="=" glyph-name="equal" horiz-adv-x="578" d="M545 213V127H33V213H545ZM545 385V299H33V385H545Z"/>
<glyph unicode="&gt;" glyph-name="greater" horiz-adv-x="578" d="M33 498L545 291V221L33 14V108L417 256L33 404V498Z"/>
<glyph unicode="?" glyph-name="question" horiz-adv-x="453" d="M229 100Q253 100 270 83T287 42Q287 18 270 1T229 -16Q205 -16 188 1T171 42Q171 65 188 82T229 100ZM391 345Q392 312 379 283T344 232T291 197T229 184Q196 184 167 196T115 230T81 281T68 344Q68 380 79 404T107 444T147 471T194 491Q217 500 239 508T279 527T308 555T319 596Q319 638 293 661T227 685Q209 685 194 678T167 660T148 633T141 599Q141 591 143 583T147 567H53L51 600Q49 637 63 668T103 721T161 757T230 770Q268 770 301 757T358 720T396 664T410 593Q410 558 396 525T356 469Q331 447 298 435T232 413Q205 405 182 389T159 340Q159 310 179 289T229 268Q261 268 281 290T300 345H391Z"/>
<glyph unicode="@" glyph-name="at" horiz-adv-x="800" d="M542 568H613L563 311Q560 298 558 283T555 255Q555 242 559 234T577 225Q594 225 613 241T648 284T674 345T685 417Q685 480 665 530T608 616T522 671T415 690Q352 690 298 666T203 599T139 499T116 377Q116 308 141 251T210 152T310 87T432 64Q495 64 542 76T618 112L693 52Q666 38 639 26T581 4T511 -10T424 -16Q343 -16 273 13T150 95T67 220T36 377Q36 461 65 533T147 657T268 740T418 770Q484 770 543 749T653 683Q704 638 734 581T765 453Q765 390 749 335T703 241Q667 193 626 173T549 154Q528 155 514 171T495 216Q469 190 437 172T359 154Q326 154 296 168T242 208T205 266T191 339Q191 384 205 427T246 503T310 557T395 577Q433 577 465 561T528 506L542 568ZM503 372Q511 433 482 466T401 499Q371 499 347 486T305 450T278 401T269 346Q269 324 276 304T296 267T327 242T369 232Q402 232 426 243T466 274T491 319T503 372Z"/>
<glyph unicode="A" glyph-name="A" horiz-adv-x="703" d="M352 580L218 275H486L352 580ZM179 189L93 0H-8L352 786L712 0H611L525 189H179Z"/>
<glyph unicode="B" glyph-name="B" horiz-adv-x="535" d="M64 754H156Q209 754 259 746T347 714T409 651T432 547Q432 526 427 505T411 464T385 429T351 404V402Q384 396 412 378T460 334T491 276T502 211Q502 154 480 114T421 49T337 12T240 0H64V754ZM158 84H230Q263 84 294 89T351 110T392 151T408 217Q408 257 390 282T344 321T281 340T216 345H158V84ZM158 420H182Q215 420 244 424T296 442T331 480T344 546Q344 586 332 610T297 647T246 665T184 670H158V420Z"/>
<glyph unicode="C" glyph-name="C" horiz-adv-x="661" d="M621 610Q580 646 528 665T422 684Q359 684 305 660T210 593T147 495T124 376Q124 314 146 259T209 161T303 95T420 70Q476 70 527 90T621 148V37Q577 11 525 -2T423 -16Q342 -16 271 14T146 96T61 220T30 373Q30 457 61 529T147 655T275 739T431 770Q481 770 529 758T621 719V610Z"/>
<glyph unicode="D" glyph-name="D" horiz-adv-x="665" d="M158 86H191Q263 86 328 100T442 149T520 239T549 377Q549 459 520 515T442 605T328 653T191 668H158V86ZM64 754H220Q307 754 383 731T518 662T609 545T643 381Q643 285 610 213T520 94T384 24T217 0H64V754Z"/>
<glyph unicode="E" glyph-name="E" horiz-adv-x="521" d="M72 754H477V668H166V457H468V371H166V86H477V0H72V754Z"/>
<glyph unicode="F" glyph-name="F" horiz-adv-x="474" d="M165 668V456H427V370H165V0H71V754H436V668H165Z"/>
<glyph unicode="G" glyph-name="G" horiz-adv-x="780" d="M759 380V350Q759 272 733 206T660 90T547 12T402 -16Q323 -16 254 15T133 101T51 226T21 375Q21 456 51 528T135 654T259 739T412 770Q500 770 581 732T719 624L653 561Q612 616 549 650T416 684Q353 684 298 660T203 595T139 497T115 378Q115 319 138 264T200 165T293 96T408 70Q452 70 495 87T574 135T631 207T655 294H460V380H759Z"/>
<glyph unicode="H" glyph-name="H" horiz-adv-x="675" d="M517 450V754H611V0H517V362H158V0H64V754H158V450H517Z"/>
<glyph unicode="I" glyph-name="I" horiz-adv-x="232" d="M163 0H69V754H163V0Z"/>
<glyph unicode="J" glyph-name="J" horiz-adv-x="362" d="M303 754V275Q303 221 296 169T267 75T205 9T99 -16Q66 -16 38 -8T-19 17L28 97Q61 72 103 72Q143 72 165 93T196 144T207 210T209 275V754H303Z"/>
<glyph unicode="K" glyph-name="K" horiz-adv-x="600" d="M486 754H609L270 415L615 0H488L204 351L166 315V0H72V754H166V427L486 754Z"/>
<glyph unicode="L" glyph-name="L" horiz-adv-x="385" d="M166 86H395V0H72V754H166V86Z"/>
<glyph unicode="M" glyph-name="M" horiz-adv-x="851" d="M200 498H198L110 0H13L167 786L426 192L685 786L839 0H742L654 498H652L426 -16L200 498Z"/>
<glyph unicode="N" glyph-name="N" horiz-adv-x="785" d="M63 790L629 197V754H723V-31L157 562V0H63V790Z"/>
<glyph unicode="O" glyph-name="O" horiz-adv-x="828" d="M414 72Q475 72 529 95T625 160T691 256T715 377Q715 439 693 494T631 591T536 657T414 682Q348 682 293 658T197 592T135 495T113 377Q113 312 137 257T202 160T298 96T414 72ZM414 770Q495 770 567 739T692 655T777 530T809 377Q809 293 778 221T694 97T568 14T414 -16Q332 -16 260 14T135 96T50 221T19 377Q19 458 50 529T135 654T261 739T414 770Z"/>
<glyph unicode="P" glyph-name="P" horiz-adv-x="495" d="M166 400H196Q232 400 267 404T331 424T378 466T396 538Q396 582 377 608T329 648T263 666T191 670H166V400ZM166 0H72V754H180Q267 754 325 740T419 697T469 629T484 536Q484 476 463 435T406 367T322 328T220 316H166V0Z"/>
<glyph unicode="Q" glyph-name="Q" horiz-adv-x="828" d="M627 166Q649 185 665 210T693 264T709 321T715 377Q715 439 693 494T631 591T536 657T414 682Q348 682 293 658T197 592T135 495T113 377Q113 312 137 257T202 160T298 96T414 72Q449 72 489 82T564 115L391 284H508L627 166ZM694 -16L629 51Q582 19 525 2T414 -16Q332 -16 260 14T135 96T50 221T19 377Q19 458 50 529T135 654T261 739T414 770Q495 770 567 739T692 655T777 530T809 377Q809 296 778 224T691 99L808 -16H694Z"/>
<glyph unicode="R" glyph-name="R" horiz-adv-x="543" d="M166 397H196Q232 397 267 401T331 421T378 463T396 535Q396 579 377 605T329 646T263 665T191 670H166V397ZM541 0H427L205 319H166V0H72V754H186Q236 754 288 749T385 719Q433 691 458 642T484 539Q484 498 471 462T435 398T378 352T303 328L541 0Z"/>
<glyph unicode="S" glyph-name="S" horiz-adv-x="537" d="M407 611Q386 646 358 664T286 682Q263 682 241 675T200 653T171 620T160 575Q160 553 170 536T195 506T228 484T265 467L319 446Q359 430 393 411T453 364T492 302T506 219Q506 168 488 125T437 50T360 2T265 -16Q219 -16 179 0T109 44T58 111T32 195L127 215Q127 184 138 158T169 112T216 83T273 72Q303 72 328 84T372 116T401 162T412 219Q412 249 401 271T372 310T330 339T282 362L230 384Q198 398 168 414T116 453T80 506T66 575Q66 621 84 657T134 718T205 756T288 770Q351 770 401 741T482 656L407 611Z"/>
<glyph unicode="T" glyph-name="T" horiz-adv-x="456" d="M275 0H181V668H2V754H454V668H275V0Z"/>
<glyph unicode="U" glyph-name="U" horiz-adv-x="669" d="M153 754V309Q153 263 161 220T189 144T245 92T335 72Q389 72 424 91T480 144T509 220T517 309V754H611V277Q611 215 592 162T538 69T451 7T335 -16Q270 -16 219 6T133 68T78 161T59 277V754H153Z"/>
<glyph unicode="V" glyph-name="V" horiz-adv-x="640" d="M321 196L545 754H648L321 -40L-7 754H96L321 196Z"/>
<glyph unicode="W" glyph-name="W" horiz-adv-x="1027" d="M301 214L514 770L727 214L938 754H1040L727 -30L514 523L301 -30L-12 754H90L301 214Z"/>
<glyph unicode="X" glyph-name="X" horiz-adv-x="574" d="M29 754H136L290 479L454 754H561L344 395L573 0H468L290 309L105 0H0L237 395L29 754Z"/>
<glyph unicode="Y" glyph-name="Y" horiz-adv-x="573" d="M-6 754H102L287 432L472 754H580L334 328V0H240V328L-6 754Z"/>
<glyph unicode="Z" glyph-name="Z" horiz-adv-x="552" d="M544 86V0H9L391 668H63V754H544L162 86H544Z"/>
<glyph unicode="[" glyph-name="bracketleft" horiz-adv-x="311" d="M153 -109H251V-193H61V809H251V725H153V-109Z"/>
<glyph unicode="\" glyph-name="backslash" horiz-adv-x="551" d="M115 868L519 0H435L31 868H115Z"/>
<glyph unicode="]" glyph-name="bracketright" horiz-adv-x="311" d="M158 725H60V809H250V-193H60V-109H158V725Z"/>
<glyph unicode="^" glyph-name="asciicircum" horiz-adv-x="578" d="M233 754H345L545 308H451L289 670L126 308H33L233 754Z"/>
<glyph unicode="_" glyph-name="underscore" horiz-adv-x="500" d="M500 -188H0V-113H500V-188Z"/>
<glyph unicode="`" glyph-name="grave" horiz-adv-x="360" d="M159 734L284 568L240 541L76 690L159 734Z"/>
<glyph unicode="a" glyph-name="a" horiz-adv-x="556" d="M501 0H411V73H409Q382 33 342 9T250 -16Q196 -16 155 4T85 60T41 141T26 237Q26 285 41 329T85 407T155 461T247 482Q299 482 340 457T409 390H411V468H501V0ZM264 64Q301 64 329 77T376 114T406 168T416 234Q416 268 406 298T377 352T329 388T264 402Q229 402 202 388T155 351T126 297T116 234Q116 201 126 171T154 116T200 78T264 64Z"/>
<glyph unicode="b" glyph-name="b" horiz-adv-x="556" d="M55 868H145V390H147Q175 432 216 457T310 482Q361 482 401 462T470 408T514 330T530 237Q530 187 515 141T472 60T402 5T306 -16Q256 -16 215 8T147 73H145V0H55V868ZM288 64Q325 64 353 77T400 114T430 168T440 234Q440 268 430 298T401 352T353 388T288 402Q253 402 226 388T179 351T150 297T140 234Q140 201 150 171T178 116T224 78T288 64Z"/>
<glyph unicode="c" glyph-name="c" horiz-adv-x="441" d="M406 335Q351 398 272 398Q239 398 211 385T161 349T128 296T116 234Q116 198 128 168T161 115T212 81T278 68Q317 68 348 84T406 130V15Q375 -2 344 -9T277 -16Q225 -16 180 2T100 54T46 132T26 230Q26 284 45 330T99 410T181 463T282 482Q314 482 346 475T406 451V335Z"/>
<glyph unicode="d" glyph-name="d" horiz-adv-x="556" d="M411 73H409Q382 33 341 9T250 -16Q196 -16 154 4T84 60T41 141T26 237Q26 285 41 329T85 407T154 461T246 482Q299 482 340 457T409 390H411V868H501V0H411V73ZM264 64Q301 64 329 77T376 114T406 168T416 234Q416 268 406 298T377 352T329 388T264 402Q229 402 202 388T155 351T126 297T116 234Q116 201 126 171T154 116T200 78T264 64Z"/>
<glyph unicode="e" glyph-name="e" horiz-adv-x="488" d="M383 287Q375 340 342 372T254 404Q201 404 165 371T121 287H383ZM116 219Q116 189 126 161T154 112T199 77T257 64Q309 64 340 88T397 155L473 112Q440 51 383 18T256 -16Q202 -16 160 3T88 55T42 133T26 230Q26 284 40 330T83 410T154 463T254 482Q310 482 351 463T419 410T459 331T473 233V219H116Z"/>
<glyph unicode="f" glyph-name="f" horiz-adv-x="275" d="M294 777Q280 783 264 789T234 796Q210 796 197 783T178 750T171 708T170 669V468H294V384H170V0H80V384H39V468H80V696Q80 734 87 767T112 826T158 865T231 880Q264 880 294 868V777Z"/>
<glyph unicode="g" glyph-name="g" horiz-adv-x="555" d="M500 9Q500 -51 490 -102T455 -190T385 -247T272 -268Q223 -268 182 -254T111 -212T64 -145T46 -56H136Q136 -119 175 -153T276 -188Q318 -188 344 -175T384 -138T404 -84T410 -16V73H408Q381 33 340 9T249 -16Q195 -16 153 4T83 60T40 141T25 237Q25 285 40 329T84 407T153 461T245 482Q298 482 339 457T408 388H410V468H500V9ZM263 64Q300 64 328 77T375 114T405 168T415 234Q415 268 405 298T376 352T328 388T263 402Q228 402 201 388T154 351T125 297T115 234Q115 201 125 171T153 116T199 78T263 64Z"/>
<glyph unicode="h" glyph-name="h" horiz-adv-x="523" d="M152 868V405H154Q175 443 213 462T295 482Q344 482 376 467T427 424T453 359T461 279V0H371V268Q371 298 368 322T354 365T323 392T268 402Q224 402 201 385T167 340T154 280T152 215V0H62V868H152Z"/>
<glyph unicode="i" glyph-name="i" horiz-adv-x="254" d="M127 745Q153 745 171 727T189 682Q189 656 171 639T127 621Q101 621 83 638T65 682Q65 708 83 726T127 745ZM172 0H82V468H172V0Z"/>
<glyph unicode="j" glyph-name="j" horiz-adv-x="254" d="M127 745Q153 745 171 727T189 682Q189 656 171 639T127 621Q101 621 83 638T65 682Q65 708 83 726T127 745ZM172 -268H82V468H172V-268Z"/>
<glyph unicode="k" glyph-name="k" horiz-adv-x="462" d="M158 292L334 468H453L253 274L473 0H356L189 213L158 182V0H68V868H158V292Z"/>
<glyph unicode="l" glyph-name="l" horiz-adv-x="222" d="M156 0H66V868H156V0Z"/>
<glyph unicode="m" glyph-name="m" horiz-adv-x="767" d="M149 409H151Q171 440 204 461T275 482Q321 482 354 460T410 399Q432 437 470 459T554 482Q600 482 630 466T677 421T702 357T709 280V0H619V265Q619 287 617 311T605 356T579 389T532 402Q496 402 476 385T445 343T432 287T429 230V0H339V248Q339 271 337 298T327 348T302 386T253 402Q217 402 196 386T165 344T152 288T149 230V0H59V468H149V409Z"/>
<glyph unicode="n" glyph-name="n" horiz-adv-x="523" d="M152 405H154Q175 443 213 462T295 482Q344 482 376 467T427 424T453 359T461 279V0H371V268Q371 298 368 322T354 365T323 392T268 402Q224 402 201 385T167 340T154 280T152 215V0H62V468H152V405Z"/>
<glyph unicode="o" glyph-name="o" horiz-adv-x="540" d="M270 396Q237 396 208 383T157 348T123 296T110 233Q110 200 122 171T156 119T207 83T270 70Q303 70 332 83T383 118T417 170T430 233Q430 266 418 296T384 348T333 383T270 396ZM270 482Q322 482 368 463T447 411T500 332T520 233Q520 180 501 135T448 56T368 3T270 -16Q217 -16 172 3T93 55T40 134T20 233Q20 286 39 331T92 410T171 463T270 482Z"/>
<glyph unicode="p" glyph-name="p" horiz-adv-x="556" d="M145 390H147Q175 432 216 457T310 482Q361 482 401 462T470 408T514 330T530 237Q530 187 515 141T472 60T402 5T306 -16Q256 -16 215 8T147 73H145V-268H55V468H145V390ZM288 64Q325 64 353 77T400 114T430 168T440 234Q440 268 430 298T401 352T353 388T288 402Q253 402 226 388T179 351T150 297T140 234Q140 201 150 171T178 116T224 78T288 64Z"/>
<glyph unicode="q" glyph-name="q" horiz-adv-x="556" d="M501 -268H411V73H409Q382 33 341 9T250 -16Q196 -16 154 4T84 60T41 141T26 237Q26 285 41 329T85 407T154 461T246 482Q299 482 340 457T409 390H411V468H501V-268ZM264 64Q301 64 329 77T376 114T406 168T416 234Q416 268 406 298T377 352T329 388T264 402Q229 402 202 388T155 351T126 297T116 234Q116 201 126 171T154 116T200 78T264 64Z"/>
<glyph unicode="r" glyph-name="r" horiz-adv-x="351" d="M158 392H161Q178 434 211 458T289 482Q309 482 327 476T363 459L322 377Q310 388 297 392T267 396Q231 396 209 381T176 341T162 288T158 230V0H68V468H158V392Z"/>
<glyph unicode="s" glyph-name="s" horiz-adv-x="384" d="M250 361Q242 378 226 390T190 402Q171 402 156 389T141 356Q141 341 150 330T175 308T209 290T250 272T290 252T325 224T349 188T358 139Q358 106 345 78T310 28T259 -4T197 -16Q171 -16 147 -9T100 11T61 44T35 89L112 124Q126 98 145 81T197 64Q226 64 247 82T268 130Q268 149 260 159T235 181L147 228Q127 238 111 249T82 273T64 304T57 346Q57 374 68 399T97 442T141 471T195 482Q238 482 271 460T323 400L250 361Z"/>
<glyph unicode="t" glyph-name="t" horiz-adv-x="240" d="M165 0H75V384H26V468H75V647H165V468H253V384H165V0Z"/>
<glyph unicode="u" glyph-name="u" horiz-adv-x="512" d="M148 468V209Q148 181 152 156T169 111T202 80T256 68Q289 68 310 79T343 110T359 155T364 209V468H454V199Q454 151 443 112T407 44T346 0T256 -16Q204 -16 167 -1T105 43T70 111T58 199V468H148Z"/>
<glyph unicode="v" glyph-name="v" horiz-adv-x="445" d="M222 176L357 468H458L222 -16L-13 468H88L222 176Z"/>
<glyph unicode="w" glyph-name="w" horiz-adv-x="718" d="M222 170L360 494L497 170L633 468H735L497 -16L360 297L222 -16L-16 468H86L222 170Z"/>
<glyph unicode="x" glyph-name="x" horiz-adv-x="489" d="M27 468H133L244 317L365 468H474L302 254L503 0H398L244 190L95 0H-14L195 254L27 468Z"/>
<glyph unicode="y" glyph-name="y" horiz-adv-x="484" d="M-13 468H92L250 171L397 468H498L119 -268H17L201 80L-13 468Z"/>
<glyph unicode="z" glyph-name="z" horiz-adv-x="495" d="M481 84V0H2L319 384H56V468H494L177 84H481Z"/>
<glyph unicode="{" glyph-name="braceleft" horiz-adv-x="334" d="M48 344Q86 361 104 399T123 495V677Q123 707 132 731T154 773T182 799T208 809H286V725H246Q223 725 219 707T215 663V479Q215 436 205 405T182 354T157 322T139 307Q144 304 156 293T182 262T205 210T215 136V-48Q215 -73 219 -91T246 -110H286V-194H208Q197 -194 182 -185T154 -158T132 -117T123 -62V120Q123 177 105 215T48 271V344Z"/>
<glyph unicode="|" glyph-name="bar" horiz-adv-x="570" d="M328 0H242V868H328V0Z"/>
<glyph unicode="}" glyph-name="braceright" horiz-adv-x="334" d="M286 271Q248 254 230 216T211 120V-62Q211 -92 202 -116T180 -158T152 -184T126 -194H48V-110H88Q111 -110 115 -92T119 -48V136Q119 179 129 210T152 261T177 293T195 307Q190 310 178 321T152 353T129 405T119 479V663Q119 688 115 706T88 725H48V809H126Q137 809 152 800T180 773T202 732T211 677V495Q211 438 229 400T286 344V271Z"/>
<glyph unicode="~" glyph-name="asciitilde" horiz-adv-x="578" d="M545 284Q534 263 519 242T485 203T443 174T393 162Q365 162 336 178T278 213T227 248T188 264Q162 264 141 243T96 182L33 227Q46 246 61 268T96 308T137 338T186 350Q223 350 253 334T308 299T353 264T392 248Q406 248 417 254T438 272T457 299T478 334L545 284Z"/>
<glyph unicode="" glyph-name="Euro" horiz-adv-x="578" d="M568 644Q532 666 498 675T410 684Q352 684 311 665T241 614T195 542T171 460H528L514 402H163Q162 390 162 388Q162 387 162 376Q162 362 163 352T166 328H489L475 270H176Q184 232 201 196T247 132T315 87T408 70Q431 70 450 72T489 79T527 95T568 120V19Q542 5 504 -5T411 -16Q348 -16 293 2T193 55T119 144T77 270H0L14 328H70Q69 342 69 350T68 373Q68 379 68 382Q68 386 68 388Q68 390 68 393T69 402H1L15 460H75Q88 538 119 596T196 693T299 751T419 770Q437 770 459 768T504 760T549 747T589 729L568 644Z"/>
</font>
</defs>
</svg>
